728

Home » » Tutiya Dil 2013 Hindi Full Movie Torrent Download

Tutiya Dil 2013 Hindi Full Movie Torrent Download


Height : 272 pixels
Display aspect ratio : 2.35:1
Frame rate : 24.000 fps
Color space : YUV
Chroma subsampling : 4:2:0
Bit depth : 8 bits
Scan type : Progressive
Compression mode : Lossy
Bits/(Pixel*Frame) : 0.160
Stream size : 606 MiB (87%)
Writing library : XviD 1.2.1 (UTC 2008-12-04)

Audio
ID : 1
Format : MPEG Audio
Format version : Version 1
Format profile : Layer 3
Mode : Joint stereo
Mode extension : MS Stereo
Codec ID : 55
Codec ID/Hint : MP3
Duration : 2h 7mn
Bit rate mode : Variable
Bit rate : 90.7 Kbps
Nominal bit rate : 96.0 Kbps
Channel(s) : 2 channels
Sampling rate : 32.0 KHz
Compression mode : Lossy
Stream size : 82.5 MiB (12%)
Alignment : Aligned on interleaves
Interleave, duration : 36 ms (0.86 video frame)
Interleave, preload duration : 215 ms
Writing library : LAME3.99r
Encoding settings : -m j -V 4 -q 2 -lowpass 15.1 --abr 96

SEEDS 234
LEECHS 453
LANGUAGE
HINDI
SIZE
600 MB
PLUS

Tutiya Dil 2013 Hindi Full Movie Torrent Download, Tutiya Dil 2013 Torrent Download Full Movie, Tutiya Dil 2013 Full Torrent Download,Tutiya Dil 2013 Downlaod Torrent Full Hindi Movie, Tutiya Dil 2013 Full Hindi Movie Torrent Download,Tutiya Dil 2013 Download For Torrent Full Movie, Tutiya Dil 2013 Full Hindi Torrent Download

pop

movies

Games

 
Support : Your Link | Your Link | Your Link
Copyright © 2013. Movie Torrent Download - All Rights Reserved