728

Home » » The English Teacher Xvid DVDRip Movie Torrent Download

The English Teacher Xvid DVDRip Movie Torrent Download




Format : AVI
Format/Info : Audio Video Interleave
File size : 700 MiB
Duration : 1h 31mn
Overall bit rate : 1 068 Kbps
Writing library : VirtualDub build 32842/release
Video
ID : 0
Format : MPEG-4 Visual
Format profile : Advanced Simple@L5
Format settings, BVOP : 2
Format settings, QPel : No
Format settings, GMC : No warppoints
Format settings, Matrix : Default (H.263)
Muxing mode : Packed bitstream
Codec ID : XVID
Codec ID/Hint : XviD
Duration : 1h 31mn
Bit rate : 930 Kbps
Width : 640 pixels
Height : 272 pixels
Display aspect ratio : 2.35:1
Frame rate : 23.976 fps
Color space : YUV
Chroma subsampling : 4:2:0
Bit depth : 8 bits
Scan type : Progressive
Compression mode : Lossy
Bits/(Pixel*Frame) : 0.223
Stream size : 610 MiB (87%)
Writing library : XviD 64
Audio
ID : 1
Format : MPEG Audio
Format version : Version 1
Format profile : Layer 3
Codec ID : 55
Codec ID/Hint : MP3
Duration : 1h 31mn
Bit rate mode : Constant
Bit rate : 128 Kbps
Channel(s) : 2 channels
Sampling rate : 44.1 KHz
Compression mode : Lossy
Stream size : 83.9 MiB (12%)
Alignment : Split accross interleaves
Interleave, duration : 42 ms (1.00 video frame)
Interleave, preload duration : 500 ms
Writing library : LAME3.99r
Encoding settings : -m s -V 4 -q 3 -lowpass 17 -b 128
Plot
An English teacher's life is disrupted when a former student returns to her small town after failing as a playwright in New York.
SEEDS 15434
LEECHS 29097
LANGUAGE
ENGLISH
MOVIE SIZE
708 MB
QUALITY
WEBRIP
TORRENT


The English Teacher Xvid DVDRip Movie Torrent Download , The English Teacher DVDRip Torrent Download, The English Teacher Utorrent Download DVDRip Movie, The English Teacher 2013 dvdRip Download Torrent, The English Teacher Movie Hollywood DVDRip Torrent

full free

300 250

300 250

ads

Games

pop

 
Support : Your Link | Your Link | Your Link
Copyright © 2013. Torrent Download - All Rights Reserved