728

Home » » Mafia 2011 BRRip Xvid Movie Torrent Download

Mafia 2011 BRRip Xvid Movie Torrent Download


Format : AVI
Format/Info : Audio Video Interleave
File size : 701 MiB
Duration : 1h 21mn
Overall bit rate : 1 196 Kbps
Writing library : VirtualDub build 32842/release
Video
ID : 0
Format : MPEG-4 Visual
Format profile : Advanced Simple@L5
Format settings, BVOP : 4
Format settings, QPel : No
Format settings, GMC : No warppoints
Format settings, Matrix : Default (H.263)
Muxing mode : Packed bitstream
Codec ID : XVID
Codec ID/Hint : XviD
Duration : 1h 21mn
Bit rate : 1 058 Kbps
Width : 640 pixels
Height : 352 pixels
Display aspect ratio : 16:9
Frame rate : 23.976 fps
Color space : YUV
Chroma subsampling : 4:2:0
Bit depth : 8 bits
Scan type : Progressive
Compression mode : Lossy
Bits/(Pixel*Frame) : 0.196
Stream size : 620 MiB (89%)
Writing library : XviD 64
Audio
ID : 1
Format : MPEG Audio
Format version : Version 1
Format profile : Layer 3
Codec ID : 55
Codec ID/Hint : MP3
Duration : 1h 21mn
Bit rate mode : Constant
Bit rate : 128 Kbps
Channel(s) : 2 channels
Sampling rate : 44.1 KHz
Compression mode : Lossy
Stream size : 75.0 MiB (11%)
Alignment : Split accross interleaves
Interleave, duration : 42 ms (1.00 video frame)
Interleave, preload duration : 500 ms
Writing library : LAME3.99r
Encoding settings : -m s -V 4 -q 3 -lowpass 17 -b 128
Plot
Its the 70s and criminal boss Renzo and his crew wreak havoc across the streets, leaving bodies
wherever they go. Detective Womack will stop at nothing to bring these thugs to justice, even if
it means breaking the law. Starring Ving Rhames, Pam Grier, Robert Patrick, and Persia White,
MAFIA delivers justice one bullet at a time.



SEEDS 23432
LEECHS 24322
LANGUAGE
ENGLISH
MOVIE SIZE
710 MB
QUALITY
BRRIP
TORRENT



Mafia 2011 BRRip Xvid Movie Torrent Download, Mafia 2011 download torrent brrip, Mafia 2011 xvid brrip download utorrent, Mafia 2011utorrent download brrip, Mafia 2011 hollywood brrip torrent download, Mafia 2011 download brrip xvid utorrent download, Mafia 2011download for torrent brrip

pop

movies

Games

 
Support : Your Link | Your Link | Your Link
Copyright © 2013. Movie Torrent Download - All Rights Reserved