728

Home » » The Marine 3 Homefront 2013 BRRip Xvid Movie Torrent Download

The Marine 3 Homefront 2013 BRRip Xvid Movie Torrent Download




Format : MPEG-4 Visual
Format profile : Advanced Simple@L5
Format settings, BVOP : 4
Format settings, QPel : No
Format settings, GMC : No warppoints
Format settings, Matrix : Default (H.263)
Muxing mode : Packed bitstream
Codec ID : XVID
Codec ID/Hint : XviD
Duration : 1h 30mn
Bit rate : 955 Kbps
Width : 640 pixels
Height : 352 pixels
Display aspect ratio : 16:9
Frame rate : 23.976 fps
Color space : YUV
Chroma subsampling : 4:2:0
Bit depth : 8 bits
Scan type : Progressive
Compression mode : Lossy
Bits/(Pixel*Frame) : 0.177
Stream size : 616 MiB (87%)
Writing library : XviD 64
Audio
ID : 1
Format : MPEG Audio
Format version : Version 1
Format profile : Layer 3
Codec ID : 55
Codec ID/Hint : MP3
Duration : 1h 30mn
Bit rate mode : Constant
Bit rate : 128 Kbps
Channel(s) : 2 channels
Sampling rate : 44.1 KHz
Compression mode : Lossy
Stream size : 82.5 MiB (12%)
Alignment : Split accross interleaves
Interleave, duration : 42 ms (1.00 video frame)
Interleave, preload duration : 500 ms
Writing library : LAME3.99r
Encoding settings : -m s -V 4 -q 3 -lowpass 17 -b 128
Plot
A Marine must do whatever it takes to save his kidnapped niece and stop a terrorist attack masterminded by a radical militia group.


SEEDS 154345
LEECHS 347654
LANGUAGE
ENGLIS
MOVIE SIZE
716 MB
QUALITY
BLU-RAY
TORRENT







The Marine 3 Homefront 2013 BRRip Xvid Movie Torrent Download, The Marine 3 Homefront 2013 Movie Utorrent Download BRRip Xvid, The Marine 3 Homefront 2013 Full BRRip Torrent Download, The Marine 3 Homefront 2013 Xvid BRRip Download Torrent, The Marine 3 Homefront 2013 Hollywood BRRip Movie Torrent Download

pop

movies

Games

 
Support : Your Link | Your Link | Your Link
Copyright © 2013. Movie Torrent Download - All Rights Reserved