728

Home » » Smashed 2012 BRRip Xvid Movie Torrent Download

Smashed 2012 BRRip Xvid Movie Torrent Download


Format : AVI
Format/Info : Audio Video Interleave
File size : 701 MiB
Duration : 1h 21mn
Overall bit rate : 1 209 Kbps
Writing library : VirtualDub build 32842/release
Video
ID : 0
Format : MPEG-4 Visual
Format profile : Advanced Simple@L5
Format settings, BVOP : 4
Format settings, QPel : No
Format settings, GMC : No warppoints
Format settings, Matrix : Default (H.263)
Muxing mode : Packed bitstream
Codec ID : XVID
Codec ID/Hint : XviD
Duration : 1h 21mn
Bit rate : 1 071 Kbps
Width : 640 pixels
Height : 352 pixels
Display aspect ratio : 16:9
Frame rate : 23.976 fps
Color space : YUV
Chroma subsampling : 4:2:0
Bit depth : 8 bits
Scan type : Progressive
Compression mode : Lossy
Bits/(Pixel*Frame) : 0.198
Stream size : 622 MiB (89%)
Writing library : XviD 64
Audio
ID : 1
Format : MPEG Audio
Format version : Version 1
Format profile : Layer 3
Codec ID : 55
Codec ID/Hint : MP3
Duration : 1h 21mn
Bit rate mode : Constant
Bit rate : 128 Kbps
Channel(s) : 2 channels
Sampling rate : 44.1 KHz
Compression mode : Lossy
Stream size : 74.3 MiB (11%)
Alignment : Split accross interleaves
Interleave, duration : 42 ms (1.00 video frame)
Interleave, preload duration : 500 ms
Writing library : LAME3.99r
Encoding settings : -m s -V 4 -q 3 -lowpass 17 -b 128
Plot
A married couple whose bond is built on a mutual love of alcohol gets their relationship put to the test when the wife decides to get sober.


SEEDS 6765
LEECHS 12323
LANGUAGE
ENGLISH
MOVIE SIZE
711 MB
QUALITY
BLU-RAY
TORRENT


Smashed 2012 BRRip Xvid Movie Torrent Download, Smashed 2012 Download BRRip Xvid Utorrent, Smashed 2012 Movie Utorrent Download Xvid BRRip, Smashed 2012 Full BRRip Xvid Torrent Download, Smashed 2012 Hollywood Movie BRRip Utorrent Download, Smashed 2012 Download English Movie BRRip Torrent FULL

full free

300 250

300 250

ads

Games

pop

 
Support : Your Link | Your Link | Your Link
Copyright © 2013. Torrent Download - All Rights Reserved