728

Home » » If I Were You 2012 Xvid Webrip Movie Torrent Download

If I Were You 2012 Xvid Webrip Movie Torrent Download




Format : AVI
Format/Info : Audio Video Interleave
File size : 704 MiB
Duration : 1h 54mn
Overall bit rate : 856 Kbps
Writing library : VirtualDub build 32842/release
Video
ID : 0
Format : MPEG-4 Visual
Format profile : Advanced Simple@L5
Format settings, BVOP : 4
Format settings, QPel : No
Format settings, GMC : No warppoints
Format settings, Matrix : Default (H.263)
Muxing mode : Packed bitstream
Codec ID : XVID
Codec ID/Hint : XviD
Duration : 1h 54mn
Bit rate : 718 Kbps
Width : 640 pixels
Height : 352 pixels
Display aspect ratio : 16:9
Frame rate : 23.976 fps
Color space : YUV
Chroma subsampling : 4:2:0
Bit depth : 8 bits
Scan type : Progressive
Compression mode : Lossy
Bits/(Pixel*Frame) : 0.133
Stream size : 591 MiB (84%)
Writing library : XviD 64
Audio
ID : 1
Format : MPEG Audio
Format version : Version 1
Format profile : Layer 3
Codec ID : 55
Codec ID/Hint : MP3
Duration : 1h 54mn
Bit rate mode : Constant
Bit rate : 128 Kbps
Channel(s) : 2 channels
Sampling rate : 44.1 KHz
Compression mode : Lossy
Stream size : 105 MiB (15%)
Alignment : Split accross interleaves
Interleave, duration : 42 ms (1.00 video frame)
Interleave, preload duration : 500 ms
Writing library : LAME3.99r
Encoding settings : -m s -V 4 -q 3 -lowpass 17 -b 128






SEEDS 45645
LEECHS 35453
LANGUAGE
ENGLISH
MOVIE SIZE
715MB
QUALITY
WEBRIP
TORRENT




If I Were You 2012 Xvid Webrip Movie Torrent Download, If I Were You 2012 Webrip Download Torrent, If I Were You 2012 Torrent Movie Download WebRip Xvid, If I Were You 2012 Xvid Webrip Download Torrent, If I Were You 2012 Download Webrip movie utorrent, If I Were You 2012 English Movie Download Webrip torrent

full free

300 250

300 250

ads

Games

pop

 
Support : Your Link | Your Link | Your Link
Copyright © 2013. Torrent Download - All Rights Reserved