Home » » Parker Hollywood Full Movie Torrent Download DVD

Parker Hollywood Full Movie Torrent Download DVD



Video
ID : 0
Format : MPEG-4 Visual
Format profile : Advanced Simple@L5
Format settings, BVOP : 1
Format settings, QPel : No
Format settings, GMC : No warppoints
Format settings, Matrix : Default (H.263)
Codec ID : XVID
Codec ID/Hint : XviD
Duration : 1h 50mn
Bit rate : 1 988 Kbps
Width : 640 pixels
Height : 360 pixels
Display aspect ratio : 16:9
Frame rate : 29.970 fps
Color space : YUV
Chroma subsampling : 4:2:0
Bit depth : 8 bits
Scan type : Progressive
Compression mode : Lossy
Bits/(Pixel*Frame) : 0.288
Stream size : 1.53 GiB (92%)
Writing library : XviD 1.2.1 (UTC 2008-12-04)
Audio
ID : 1
Format : AC-3
Format/Info : Audio Coding 3
Mode extension : CM (complete main)
Codec ID : 2000
Duration : 1h 50mn
Bit rate mode : Constant
Bit rate : 160 Kbps
Channel(s) : 2 channels
Channel positions : Front: L R
Sampling rate : 48.0 KHz
Bit depth : 16 bits
Compression mode : Lossy
Stream size : 126 MiB (7%)
Alignment : Aligned on interleaves
Interleave, duration : 33 ms (1.00 video frame)
Interleave, preload duration : 512 ms
Plot:
A thief with a unique code of professional ethics is double-crossed by his crew and left for dead. Assuming a new disguise and forming an unlikely alliance with a woman on the inside, he looks to hijack the score of the crew's latest heist

SEEDS 3423

LEECHS 132434
LANGUAGE
ENGLISH

MOVIE SIZE
1.66 GB
QUALITY XVID CAM
TORRENT





Parker Hollywood Full Movie Torrent Download DVD, Parker Full Torrent Download, Parker  Download Movie Torrent, Parker English Movie Torrent Download, Parker  Utorrent Download, Parker DVDRip Torrent Download, Parker Latest Movie Torrent Download, Parker  Download For Torrent Movie

full free

Download

FB

Games

pop

 
Support : Your Link | Your Link | Your Link
Copyright © 2013. Torrent Download - All Rights Reserved