728

Home » » Barrio Tales 2012 Xvid DVDRip Movie Torrent Download

Barrio Tales 2012 Xvid DVDRip Movie Torrent Download




Complete name : Barrio.Tales.2012.WEBRip.XviD-Acesn8s
Format : AVI
Format/Info : Audio Video Interleave
File size : 695 MiB
Duration : 1h 22mn
Overall bit rate : 1 184 Kbps
Writing library : VirtualDub build 32842/release

Video
ID : 0
Format : MPEG-4 Visual
Format profile : Advanced Simple@L5
Format settings, BVOP : 4
Format settings, QPel : No
Format settings, GMC : No warppoints
Format settings, Matrix : Default (H.263)
Muxing mode : Packed bitstream
Codec ID : XVID
Codec ID/Hint : XviD
Duration : 1h 22mn
Bit rate : 1 046 Kbps
Width : 640 pixels
Height : 272 pixels
Display aspect ratio : 2.35:1
Frame rate : 23.976 fps
Color space : YUV
Chroma subsampling : 4:2:0
Bit depth : 8 bits
Scan type : Progressive
Compression mode : Lossy
Bits/(Pixel*Frame) : 0.251
Stream size : 614 MiB (88%)
Writing library : XviD 64

Audio
ID : 1
Format : MPEG Audio
Format version : Version 1
Format profile : Layer 3
Mode : Joint stereo
Mode extension : MS Stereo
Codec ID : 55
Codec ID/Hint : MP3
Duration : 1h 22mn
Bit rate mode : Constant
Bit rate : 128 Kbps
Channel(s) : 2 channels
Sampling rate : 48.0 KHz
Compression mode : Lossy
Stream size : 75.1 MiB (11%)
Alignment : Split accross interleaves
Interleave, duration : 42 ms (1.00 video frame)
Interleave, preload duration : 500 ms



SEEDS 5654

LEECHS 6766
LANGUAGE
ENGLISH
MOVIE SIZE

701 MB
QUALIT
DVDRIP XVID
TORRENT

DOWNLOAD

Barrio Tales 2012 Xvid DVDRip Movie Torrent Download, Barrio Tales 2012 Download DVDRip  Torrent, Barrio Tales 2012 Full DVDRip Xvid Torrent, Barrio Tales 2012 Utorrent Download dvdrip , Barrio Tales 2012 Blu-ray Xvid Torrent, Barrio Tales 2012 Torrent Movie Download DVDRip

pop

download

latest movies

1

300 250

ads

Games

pop

 
Support : Your Link | Your Link | Your Link
Copyright © 2013. Torrent Download - All Rights Reserved